<?xml version="1.0" encoding="UTF-8" standalone="no"?>
<!-- Creator: CorelDRAW X7 -->

<svg
   xmlns:dc="http://purl.org/dc/elements/1.1/"
   xmlns:cc="http://creativecommons.org/ns#"
   xmlns:rdf="http://www.w3.org/1999/02/22-rdf-syntax-ns#"
   xmlns:svg="http://www.w3.org/2000/svg"
   xmlns="http://www.w3.org/2000/svg"
   xmlns:sodipodi="http://sodipodi.sourceforge.net/DTD/sodipodi-0.dtd"
   xmlns:inkscape="http://www.inkscape.org/namespaces/inkscape"
   xml:space="preserve"
   width="650mm"
   height="125.236mm"
   version="1.1"
   style="shape-rendering:geometricPrecision; text-rendering:geometricPrecision; image-rendering:optimizeQuality; fill-rule:evenodd; clip-rule:evenodd"
   viewBox="0 0 65000 12524"
   id="svg118"
   sodipodi:docname="logo100let.svg"
   inkscape:version="0.92.1 r15371"><metadata
     id="metadata122"><rdf:RDF><cc:Work
         rdf:about=""><dc:format>image/svg+xml</dc:format><dc:type
           rdf:resource="http://purl.org/dc/dcmitype/StillImage" /></cc:Work></rdf:RDF></metadata><sodipodi:namedview
     pagecolor="#ffffff"
     bordercolor="#666666"
     borderopacity="1"
     objecttolerance="10"
     gridtolerance="10"
     guidetolerance="10"
     inkscape:pageopacity="0"
     inkscape:pageshadow="2"
     inkscape:window-width="1920"
     inkscape:window-height="1046"
     id="namedview120"
     showgrid="false"
     inkscape:zoom="0.39374969"
     inkscape:cx="1130.4136"
     inkscape:cy="205.13583"
     inkscape:window-x="0"
     inkscape:window-y="0"
     inkscape:window-maximized="1"
     inkscape:current-layer="Layer_x0020_1" /><defs
     id="defs89"><font
       id="FontID0"
       horiz-adv-x="827"
       font-variant="normal"
       style="fill-rule:nonzero"
       font-style="normal"
       font-weight="700"><font-face
         font-family="SKAUT Bold"
         id="font-face2" /><missing-glyph
         id="missing-glyph6"><path
           d="M0 0z"
           id="path4" /></missing-glyph><glyph
         unicode="c"
         horiz-adv-x="639"
         id="glyph10"><path
           d="M404.001 127.999c-127.003,0 -192.001,76.0005 -192.001,225 0,139.001 68.9989,219.001 184.001,219.001 40.9996,0 73.9985,-4.99961 126,-22.0004 9.00001,-3.00118 17.0008,-0.999213 18.9992,11.002l17.0008 113c0.999213,7.99725 -3.00118,14.9988 -12.0012,16.9973 -45,12.0012 -96.9981,19.0028 -144,19.0028 -221,0 -351.999,-142.002 -351.999,-380.002 0,-213.998 117.999,-339.998 325.999,-339.998 157.001,0 203.003,71.0008 203.003,132.998 0,12.0012 -1.00276,25.0016 -4.0004,37.0028 -3.00118,9.99922 -10.0028,14.9988 -24.0024,7.99725 -47.9977,-25.9973 -95.9989,-40.0004 -146.998,-40.0004z"
           id="path8" /></glyph><glyph
         unicode="č"
         horiz-adv-x="639"
         id="glyph14"><path
           d="M327.001 755.001l79.9973 0c26.0008,0 33.0024,9.99922 51.0024,33.9981l81.0001 110.002c9.00001,11.9976 4.99961,25.9973 -10.0028,25.9973l-99.9993 0c-13.0004,0 -19.9984,-6.99804 -22.9996,-11.9976l-39.0012 -60.0024 -38.9977 60.0024c-3.00118,4.99961 -9.99922,11.9976 -22.9996,11.9976l-99.9993 0c-15.0024,0 -19.0028,-13.9996 -10.0028,-25.9973l81.0001 -110.002c18,-23.9988 25.0016,-33.9981 51.0024,-33.9981zm76.9997 -627.003c-127.003,0 -192.001,76.0005 -192.001,225 0,139.001 68.9989,219.001 184.001,219.001 40.9996,0 73.9985,-4.99961 126,-22.0004 9.00001,-3.00118 17.0008,-0.999213 18.9992,11.002l17.0008 113c0.999213,7.99725 -3.00118,14.9988 -12.0012,16.9973 -45,12.0012 -96.9981,19.0028 -144,19.0028 -221,0 -351.999,-142.002 -351.999,-380.002 0,-213.998 117.999,-339.998 325.999,-339.998 157.001,0 203.003,71.0008 203.003,132.998 0,12.0012 -1.00276,25.0016 -4.0004,37.0028 -3.00118,9.99922 -10.0028,14.9988 -24.0024,7.99725 -47.9977,-25.9973 -95.9989,-40.0004 -146.998,-40.0004z"
           id="path12" /></glyph><glyph
         unicode="t"
         horiz-adv-x="607"
         id="glyph18"><path
           d="M392 561.002l160.002 0c7.99725,0 14.9988,6.99804 14.9988,14.9988l0 108.999c0,8.00079 -7.00158,14.9988 -14.9988,14.9988l-497.002 0c-8.00079,0 -14.9988,-6.99804 -14.9988,-14.9988l0 -108.999c0,-8.00079 6.99804,-14.9988 14.9988,-14.9988l160.002 0c5.99882,0 9.99922,-4.0004 9.99922,-10.0028l0 -378.666c0,-131.166 39.0012,-182.165 135.999,-182.165 81.9993,0 129.001,56.9977 137.002,106.165 2.99764,18 -2.00197,27 -17.0008,25.0016 -11.002,-0.999213 -30.0012,-0.999213 -40.9996,0.999213 -42.0024,5.99882 -58.0004,23.9988 -58.0004,98.0009l0 330.665c0,6.00237 4.0004,10.0028 9.99922,10.0028z"
           id="path16" /></glyph><glyph
         unicode="0"
         horiz-adv-x="612"
         id="glyph22"><path
           d="M305.999 -9.99968c167,0 258,129.999 256.001,364 -2.00064,239 -86.0011,356 -256.001,356 -167,0 -258,-127.001 -255.999,-356 2.00064,-244.001 85.9994,-364 255.999,-364zm0 138c-66,0 -92.999,64.9988 -94.0002,226 -0.99944,155.999 26.0013,217.999 94.0002,217.999 66,0 93.0007,-62.0005 94.0002,-217.999 2.00064,-161.001 -25.0001,-226 -94.0002,-226z"
           id="path20" /></glyph><glyph
         unicode="n"
         horiz-adv-x="752"
         id="glyph26"><path
           d="M687.002 31.9996c-6.00237,17.0008 -16.0016,58.9997 -16.0016,135.999l0 517.001c0,8.00079 -7.00158,14.9988 -14.9988,14.9988l-122 0c-8.00079,0 -15.0024,-6.99804 -15.0024,-14.9988l0 -434.998 -231.998 415c-13.9996,24.9981 -40.0004,40.0004 -69.0024,40.0004 -68.9989,0 -111.997,-5.00315 -180.999,-5.00315 -11.9976,0 -19.9984,-4.99961 -18.9992,-16.9973 5.99882,-74.002 30.0012,-107.001 82.9985,-115.002l0 -553.001c0,-7.99725 7.00158,-14.9988 15.0024,-14.9988l122 0c8.00079,0 14.9988,7.00158 14.9988,14.9988l0 437 211.001 -376.998c31.0004,-55.0028 75.0012,-90.0001 136.999,-90.0001 26.0008,0 60.0024,9.99922 78.0024,22.0004 9.00001,5.99882 13.9996,9.99922 8.00079,24.9981z"
           id="path24" /></glyph><glyph
         unicode="k"
         horiz-adv-x="725"
         id="glyph30"><path
           d="M36.9992 699.999c-11.9976,0 -19.9984,-4.99961 -18.9992,-16.9973 5.99882,-74.002 30.0012,-107.001 82.9985,-115.002l0 -553.001c0,-7.99725 7.00158,-14.9988 15.0024,-14.9988l126.999 0c8.00079,0 14.9988,7.00158 14.9988,14.9988l0 337.001 194 -275.999c42.0024,-59.9989 82.0028,-90.9993 157.001,-90.9993 38.002,0 66.0012,15.998 81.0001,27.9992 6.00237,4.99961 9.00001,12.0012 0,19.9984 -46.9985,44.0008 -167,214.002 -257,330.003 -3.00118,3.99685 -3.00118,7.99725 0,11.9976l225 297c11.002,15.0024 2.00197,27.9992 -15.998,27.9992l-123.002 0c-18.9992,0 -32.9988,-6.99804 -41.9989,-19.9984l-219.001 -296.001 0 239c0,47.002 -34.9973,82.0028 -81.9993,82.0028 -49.0004,0 -90.0001,-5.00315 -139.001,-5.00315z"
           id="path28" /></glyph><glyph
         unicode="v"
         horiz-adv-x="723"
         id="glyph34"><path
           d="M678.668 678.002c6.99804,10.9984 2.99764,16.9973 -6.00237,21.9969 -6.99804,4.0004 -31.0004,15.0024 -65.9977,15.0024 -75.0012,0 -107.001,-34.0016 -134.834,-117.999l-129.001 -395.001 -147.001 446.999c-9.99922,31.9996 -37.9985,50.9989 -70.9973,50.9989l-87.8351 0c-11.9976,0 -19.9984,-10.9984 -15.998,-22.9996l228.83 -651.997c5.00315,-15.0024 19.0028,-25.0016 35.0008,-25.0016l121 0c9.99922,0 18,5.99882 21.0012,14.9988l205.831 570.002c12.0012,31.9996 22.0004,57.0012 46.0028,93.0013z"
           id="path32" /></glyph><glyph
         unicode="e"
         horiz-adv-x="562"
         id="glyph38"><path
           d="M100.999 568l0 -553.001c0,-7.99725 7.00158,-14.9988 15.0024,-14.9988l301.001 0c61.9973,0 106.997,36.9992 104.999,133.002 0,9.99922 -7.00158,11.9976 -13.9996,9.99922 -38.002,-11.002 -71.0008,-11.002 -107.001,-11.002l-133.002 0c-5.99882,0 -9.99922,4.0004 -9.99922,10.0028l0 131.999c0,5.99882 4.0004,9.99922 9.99922,9.99922l185.003 0c7.99725,0 14.9988,7.00158 14.9988,14.9988l0 102.001c0,8.00079 -7.00158,14.9988 -14.9988,14.9988l-185.003 0c-5.99882,0 -9.99922,4.0004 -9.99922,10.0028l0 141.998 215.001 0c8.00079,0 14.9988,7.00158 14.9988,14.9988l0 102.001c0,8.00079 -6.99804,14.9988 -14.9988,14.9988l-436.001 0c-11.9976,0 -19.9984,-4.99961 -18.9992,-16.9973 5.99882,-74.002 30.0012,-107.001 82.9985,-115.002z"
           id="path36" /></glyph><glyph
         unicode="2"
         horiz-adv-x="550"
         id="glyph42"><path
           d="M69.0001 530.001c34.9998,22 84.0005,41.9994 132,41.9994 62.9999,0 106.001,-34.0003 106.001,-90.0007 0,-51.9991 -33.0009,-98.9992 -186.001,-254l-68.9983 -69.9995c-25.0001,-25.0001 -32.0014,-41.9994 -32.0014,-76.9991l0 -66c0,-8.0008 7.00136,-15.0004 15.0004,-15.0004l360.001 0c61.9987,2.00064 107,37.0004 104.999,132.999 0,9.99968 -6.9996,12.0003 -13.9992,9.99968 -38.0016,-8.99848 -71.0007,-9.99968 -107,-10.9991l-157 0 72.9996 75.9997c120.999,125 173.999,203.001 173.999,291.001 0,97.0003 -60.9993,211 -239,211 -66.9995,0 -132.999,-17.001 -188,-45.0012 -9.99968,-4.99896 -12.9998,-13.9992 -10.9991,-23.9989l15.9998 -102.001c2.00064,-10.9991 12.9998,-14.9986 22,-8.99848z"
           id="path40" /></glyph><glyph
         unicode="s"
         horiz-adv-x="555"
         id="glyph46"><path
           d="M438.998 562.001c11.002,-2.00197 17.0008,-0.999213 19.0028,10.9984l15.998 107.001c0.999213,8.00079 -2.99764,14.9988 -11.9976,17.0008 -35.0008,9.00001 -86.0032,13.0004 -118.003,13.0004 -190.999,0 -288,-67.0004 -288,-203 0,-215.001 293,-191.002 293,-307.003 0,-50.9989 -57.9969,-72.0001 -131.999,-72.0001 -46.9985,0 -92.9977,10.0028 -144.999,35.0008 -13.9996,7.00158 -21.0012,2.00197 -23.9988,-8.00079 -3.00118,-11.9976 -3.00118,-20.9977 -3.00118,-32.9988 0,-62.0008 36,-131.999 178.002,-131.999 161.997,0 287.997,69.9981 287.997,216 0,220.001 -293,186.998 -293,302 0,23.9988 16.0016,63.9993 117,63.9993 28.0028,0 69.0024,-3.00118 104,-9.99922z"
           id="path44" /></glyph><glyph
         unicode="7"
         horiz-adv-x="560"
         id="glyph50"><path
           d="M117 552.999c59.0001,-1.9989 200,5.00143 225.999,5.00143l-168 -359.001c-37.0005,-79.9995 -42.0003,-141 14.0007,-184.999 22.9999,-18.0001 57.9999,-24.0002 91.9996,-24.0002 6.00004,0 10.9998,1.9989 12.0001,10.9998 1.00029,13.0004 1.00029,39.9997 24.0002,95.999l183.999 453.001c7.00033,18.0001 10.0012,31.9991 10.0012,49.9992l0 85.0009c0,7.99894 -7.00033,14.9993 -15.0009,14.9993l-472 0c-12.0001,0 -20.0007,-4.99976 -19.0004,-16.9998 3.00086,-32.9994 9.0009,-60.0004 22.9999,-80.9997 20.0007,-28.9999 55.0007,-48.0003 89.0004,-49.0006z"
           id="path48" /></glyph><glyph
         unicode="g"
         horiz-adv-x="715"
         id="glyph54"><path
           d="M472.001 258.998l15.998 0 0 -113c0,-3.99685 -1.99843,-7.99725 -5.99882,-9.00001 -22.0004,-6.99804 -41.9989,-9.00001 -64.9985,-9.00001 -131.003,0 -205.002,81.0001 -205.002,220.001 0,139.001 82.9985,224.001 216.999,224.001 67.0004,0 120.001,-12.0012 171,-31.0004 9.00001,-3.00118 17.0008,-0.999213 18.9992,11.002l17.0008 110.998c0.999213,8.00079 0,16.0016 -11.9976,20.002 -61.0016,19.9984 -128.002,27 -187.002,27 -230.999,0 -387,-150.002 -387,-374 0,-215.001 131.999,-346.001 352.999,-346.001 60.0024,0 146.002,11.9976 228.001,42.9981 9.00001,4.0004 13.9996,11.002 13.9996,21.0012l0 260.001c0,46.9985 -35.0008,81.9993 -81.9993,81.9993 -54.9993,0 -107.001,-4.99961 -162.999,-4.99961 -12.0012,0 -20.002,-4.99961 -18.9992,-17.0008 2.99764,-35.0008 9.99922,-63 23.9988,-81.9993 15.998,-22.0004 41.9989,-33.0024 67.0004,-33.0024z"
           id="path52" /></glyph><glyph
         unicode="u"
         horiz-adv-x="762"
         id="glyph58"><path
           d="M100.999 568l0 -329c0,-167 99.0001,-248 290.002,-248 182.998,0 289.999,89.0009 289.999,248l0 446c0,8.00079 -6.99804,14.9988 -14.9988,14.9988l-126.999 0c-8.00079,0 -15.0024,-6.99804 -15.0024,-14.9988l0 -413.001c0,-93.9969 -47.9977,-142.997 -132.998,-142.997 -85.0005,0 -133.002,49.0004 -133.002,142.997l0 350.001c0,56.002 -33.9981,83.002 -82.9985,83.002 -40.0004,0 -85.0005,-4.0004 -138.001,-5.00315 -11.9976,0 -19.9984,-4.99961 -18.9992,-16.9973 5.99882,-74.002 30.0012,-107.001 82.9985,-115.002z"
           id="path56" /></glyph><glyph
         unicode=" "
         horiz-adv-x="340"
         id="glyph60" /><glyph
         unicode="1"
         horiz-adv-x="411"
         id="glyph64"><path
           d="M6.00004 552.999c7.00033,-61.9993 67.0008,-119.999 139,-76.9986l33.0011 18.9987 0 -480c0,-7.99894 6.99865,-14.9993 14.9993,-14.9993l122 0c8.00062,0 15.0009,7.00033 15.0009,14.9993l0 670.001c0,8.99923 -6.00004,14.9993 -16.0012,14.9993 -30.9988,0 -43.9992,1.00029 -59.0001,-2.99918 -35,-8.00062 -94.0001,-49.0006 -142.999,-77.0003 -30.0002,-16.9998 -59.0001,-37.0005 -96.0007,-49.0006 -7.00033,-1.9989 -10.9998,-4.99976 -9.99951,-18.0001z"
           id="path62" /></glyph><glyph
         unicode="é"
         horiz-adv-x="562"
         id="glyph68"><path
           d="M230 770c-8.00079,-14.9988 3.00118,-25.0016 14.9988,-25.0016l94.9997 0c15.0024,0 21.0012,6.00237 27,13.9996l98.0009 126c9.00001,12.0012 3.00118,30.0012 -11.9976,30.0012l-128.002 0c-13.9996,0 -27,-9.00001 -33.9981,-22.0004l-61.0016 -122.999zm-129.001 -202.001l0 -553.001c0,-7.99725 7.00158,-14.9988 15.0024,-14.9988l301.001 0c61.9973,0 106.997,36.9992 104.999,133.002 0,9.99922 -7.00158,11.9976 -13.9996,9.99922 -38.002,-11.002 -71.0008,-11.002 -107.001,-11.002l-133.002 0c-5.99882,0 -9.99922,4.0004 -9.99922,10.0028l0 131.999c0,5.99882 4.0004,9.99922 9.99922,9.99922l185.003 0c7.99725,0 14.9988,7.00158 14.9988,14.9988l0 102.001c0,8.00079 -7.00158,14.9988 -14.9988,14.9988l-185.003 0c-5.99882,0 -9.99922,4.0004 -9.99922,10.0028l0 141.998 215.001 0c8.00079,0 14.9988,7.00158 14.9988,14.9988l0 102.001c0,8.00079 -6.99804,14.9988 -14.9988,14.9988l-436.001 0c-11.9976,0 -19.9984,-4.99961 -18.9992,-16.9973 5.99882,-74.002 30.0012,-107.001 82.9985,-115.002z"
           id="path66" /></glyph><glyph
         unicode="a"
         horiz-adv-x="827"
         id="glyph72"><path
           d="M180 699.999c-12.0012,0 -19.9984,-4.99961 -18.9992,-16.9973 5.99882,-74.002 29.9977,-107.001 82.832,-115.002l-192.834 -545c-4.0004,-12.0012 4.0004,-22.9996 16.0016,-22.9996l132.998 0c11.8347,0 16.8343,5.99882 19.8354,13.9996l40.9996 121c3.00118,9.00001 6.99804,13.0004 15.998,13.0004l263.002 0c9.99922,0 14.9988,-3.00118 18,-13.0004l22.0004 -66.0012c19.9984,-58.9997 60.9981,-83.9977 130,-83.9977 40.9996,0 65.9977,10.9984 78.9981,20.9977 4.0004,3.00118 4.0004,9.00001 0.999213,13.0004 -9.99922,13.9996 -24.9981,36.9992 -43.9973,89.0009l-180 505c-21.0012,58.0004 -45,92.002 -145.003,92.002 -82.9985,0 -158,-5.00315 -240.832,-5.00315zm325.832 -412.998l-187.997 0c-8.00079,0 -11.002,4.0004 -9.00001,10.9984l87.9981 275 13.0004 0c13.0004,0 19.9984,-6.99804 25.0016,-22.9996l78.9981 -251.001c2.00197,-7.99725 0,-11.9976 -8.00079,-11.9976z"
           id="path70" /></glyph><glyph
         unicode="l"
         horiz-adv-x="530"
         id="glyph76"><path
           d="M36.9992 699.999c-11.9976,0 -19.9984,-4.99961 -18.9992,-16.9973 5.99882,-74.002 30.0012,-107.001 82.9985,-115.002l0 -553.001c0,-7.99725 7.00158,-14.9988 15.0024,-14.9988l288.999 0c62.0008,1.99843 107.001,36.9992 104.999,133.002 0,9.00001 -6.99804,11.9976 -13.9996,9.99922 -37.9985,-9.00001 -71.0008,-9.99922 -107.001,-11.002l-121 0c-5.99882,0 -9.99922,4.0004 -9.99922,10.0028l0 480.997c0,47.002 -34.9973,82.0028 -81.9993,82.0028 -49.0004,0 -90.0001,-5.00315 -139.001,-5.00315z"
           id="path74" /></glyph><glyph
         unicode="9"
         horiz-adv-x="604"
         id="glyph80"><path
           d="M66.0005 157c-31.0005,-88.0001 18.9987,-166.999 147,-166.999 230.999,0 340.999,180 340.999,415 0,194 -92.9998,305 -257,305 -155.999,0 -257,-100 -257,-254.001 0,-124 89.0004,-207.999 222,-207.999 51.9998,0 97.001,14.9993 131.001,42.9989 -25.0005,-116 -90.0007,-163 -180,-163 -43.0006,0 -85.0009,9.0009 -128.001,35 -6.99865,3.99947 -15.9996,2.00057 -18.9987,-6.00004zm230.999 230.001c-57.9999,0 -95.0004,36.0003 -95.0004,91.9996 0,60.0004 37.0005,92.9998 95.0004,92.9998 57.9999,0 95.0004,-32.9994 95.0004,-92.9998 0,-55.9993 -37.0005,-91.9996 -95.0004,-91.9996z"
           id="path78" /></glyph><glyph
         unicode="i"
         horiz-adv-x="339"
         id="glyph84"><path
           d="M36.9992 699.999c-11.9976,0 -19.9984,-4.99961 -18.9992,-16.9973 5.99882,-74.002 30.0012,-107.001 82.9985,-115.002l0 -553.001c0,-7.99725 7.00158,-14.9988 15.0024,-14.9988l126.999 0c8.00079,0 14.9988,7.00158 14.9988,14.9988l0 608c0,47.002 -34.9973,82.0028 -81.9993,82.0028 -49.0004,0 -90.0001,-5.00315 -139.001,-5.00315z"
           id="path82" /></glyph></font>
</defs>
</svg>
